1.1.8.14

Обкатка новых функций сплиттера и исправление текущих ошибок перед внедрением в основной код

1.1.8.14

Сообщение void » 30 окт 2011, 18:57

Исправлено:
Падения с h264.
Зависание системы при генерации эскизов проводником.
wrong aspect ratio
после 1187 криво (дергано) идет 3.10.to.Yuma.BDRemux.VC-1.mkv (у тебя должен быть этот семпл). Как в прочем и The.Jackal.BDRemux.VC-1.mkv. Остальные мкв вц1 вроде нормально.
(только для Cyberlink Video Decoder)
-----------------------------------------------------------------------------------------------------------
Изменил алгоритм работы чекбокса Compatible DXVA с учетом пожеланий 1.1.8.11
Добавил регистрацию сурса weba, oga, ogv.
Вложения
avsplitter_x64_1.1.8.14.zip
(3.35 МБ) Скачиваний: 1221
avsplitter_x86_1.1.8.14.zip
(2.84 МБ) Скачиваний: 1681
void
Администратор
 
Сообщения: 687
Зарегистрирован: 26 июл 2011, 15:22

Объявление

Re: 1.1.8.14

Сообщение lisabon » 30 окт 2011, 19:21

Спасибо за обновку.

Этот баг надеюсь поправите :roll:
lisabon
 
Сообщения: 78
Зарегистрирован: 31 июл 2011, 16:35

Re: 1.1.8.14

Сообщение A55555 » 30 окт 2011, 19:38

В трее не появляется иконка.
Если можно, то оч хотелось бы хотфикс этого.
A55555
 
Сообщения: 181
Зарегистрирован: 07 сен 2011, 20:16

Re: 1.1.8.14

Сообщение void » 30 окт 2011, 20:14

lisabon писал(а):Этот баг надеюсь поправите

Рот вроде как на всем падает, кроме собственного сплиттера. Думаю нужно аудиотрансформер попробовать отключить, там из-за звука косяк.
A55555 писал(а):В трее не появляется иконка.

Плеер может работать с другим сплиттером. Проверьте в графстудии и заодно на месте ли галка.
void
Администратор
 
Сообщения: 687
Зарегистрирован: 26 июл 2011, 15:22

Re: 1.1.8.14

Сообщение lisabon » 30 окт 2011, 20:25

void писал(а):Думаю нужно аудиотрансформер попробовать отключить, там из-за звука косяк.


Отключил

Изображение

но всё-равно падает... и как я уже писал на версии 1.1.8.10, вылетов нет.
lisabon
 
Сообщения: 78
Зарегистрирован: 31 июл 2011, 16:35

Re: 1.1.8.14

Сообщение A55555 » 30 окт 2011, 20:50

void писал(а):
A55555 писал(а):В трее не появляется иконка.

Плеер может работать с другим сплиттером. Проверьте в графстудии и заодно на месте ли галка.

Галка стоит. Работает именно с AVS.
---------------
Всё уже появляется, винда глючила походу.
Извините.
A55555
 
Сообщения: 181
Зарегистрирован: 07 сен 2011, 20:16

Re: 1.1.8.14

Сообщение vaho » 30 окт 2011, 21:30

Проверил на имеющихся файлах, вроде все работает нормально.
Вижу пока не исправили звук на втором китайском файле. В Pot в обновлении 29998 кореец исправил подобного рода звук, у него это называлось иcправлением звука в специфичных AAC.
Кстати по ходу дела нашел как создавать подключения для EVO, надо не в графбильдере и не в Connections,как я пытался, а на вкладке Output добавить профиль для потока mpeg (mpeg ps). Так что можно добавить прописку сурса и для evo.
vaho
 
Сообщения: 205
Зарегистрирован: 02 окт 2011, 07:32

Re: 1.1.8.14

Сообщение lisabon » 30 окт 2011, 21:43

void

Связка PotPlayer 1.5.29998 + MPCVideoDec 1.5.2.3456 (или 1.5.3.3754) + AVSplitter на файлах MKV c VC1, например,

Код: Выделить всё
  General
    Unique ID : 183311257635625592003146837089967376294 (0x89E876CA2B96A616B5753635BC8787A6)
    Complete name : 17 mkv 1080p vc1.mkv
    Format : Matroska
    Format version : Version 1
    File size : 37.1 MiB
    Duration : 16s 406ms
    Overall bit rate : 19.0 Mbps
    Encoded date : UTC 2008-02-29 21:02:15
    Writing application : mkvmerge v2.1.0 ('Another Place To Fall') built on Aug 19 2007 13:40:07
    Writing library : libebml v0.7.7 + libmatroska v0.8.1
  Video #1
    ID : 1
    Format : VC-1
    Format profile : AP@L3
    Codec ID : WVC1
    Codec ID/Hint : Microsoft
    Duration : 16s 391ms
    Bit rate : 17.7 Mbps
    Width : 1 920 pixels
    Height : 1 080 pixels
    Display aspect ratio : 16:9
    Frame rate : 23.976 fps
    Original frame rate : 29.970 fps
    Chroma subsampling : 4:2:0
    Bit depth : 8 bits
    Scan type : Progressive
    Scan order : Top Field First
    Compression mode : Lossy
    Bits/(Pixel*Frame) : 0.356
    Stream size : 34.6 MiB (93%)
    Language : English
  Audio #2
    ID : 2
    Format : AC-3
    Format/Info : Audio Coding 3
    Mode extension : CM (complete main)
    Codec ID : A_AC3
    Duration : 16s 406ms
    Bit rate mode : Constant
    Bit rate : 448 Kbps
    Channel(s) : 6 channels
    Channel positions : Front: L C R, Side: L R, LFE
    Sampling rate : 48.0 KHz
    Bit depth : 16 bits
    Compression mode : Lossy
    Delay relative to video : 28ms
    Stream size : 897 KiB (2%)
    Title : AC3 5.1 448 kbps
    Language : Russian
  Audio #3
    ID : 3
    Format : AC-3
    Format/Info : Audio Coding 3
    Mode extension : CM (complete main)
    Codec ID : A_AC3
    Duration : 16s 406ms
    Bit rate mode : Constant
    Bit rate : 448 Kbps
    Channel(s) : 6 channels
    Channel positions : Front: L C R, Side: L R, LFE
    Sampling rate : 48.0 KHz
    Bit depth : 16 bits
    Compression mode : Lossy
    Delay relative to video : 28ms
    Stream size : 897 KiB (2%)
    Title : AC3 5.1 448 kbps
    Language : English
  Text #4
    ID : 4
    Format : UTF-8
    Codec ID : S_TEXT/UTF8
    Codec ID/Info : UTF-8 Plain Text
    Language : Russian
  Text #5
    ID : 5
    Format : ASS
    Codec ID : S_TEXT/ASS
    Codec ID/Info : Advanced Sub Station Alpha
    Compression mode : Lossless
    Language : English



не цепляется MPCVideoDec , но если вместо AVSplitter использую встроенный сплиттер или Haali или MatroskaSplitter (MPC) , то MPCVideoDec цепляется без проблем.
lisabon
 
Сообщения: 78
Зарегистрирован: 31 июл 2011, 16:35

Re: 1.1.8.14

Сообщение void » 31 окт 2011, 04:49

lisabon
Лучше бы конечно на живом файле посмотреть.
Пот аудио трансформер не смотря на снятую галку в настройках все равно загружается. Уже весь svn прошерстил с откатом подозрительных изменений :evil:
void
Администратор
 
Сообщения: 687
Зарегистрирован: 26 июл 2011, 15:22

Re: 1.1.8.14

Сообщение sbahmach » 31 окт 2011, 05:36

void
Спасибо
sbahmach
 
Сообщения: 110
Зарегистрирован: 04 авг 2011, 18:52

След.

Вернуться в Тестовые сборки

Кто сейчас на конференции

Сейчас этот форум просматривают: нет зарегистрированных пользователей и гости: 1

cron