1.2.2.3

Обкатка новых функций сплиттера и исправление текущих ошибок перед внедрением в основной код

Re: 1.2.2.3

Сообщение void » 07 апр 2012, 14:55

vaho писал(а):Но вот интересно с чем связано неподключение автоматически (а только принудительно) видеодеков indeo у Haali (вспомнил. что так было у него всегда) и в последних версиях AV?

Два медиатипа генерится. Дефолтный (тот что выше в списке) видимо не подходит декодеру. Опять же все это предположения, для более точного ответа нужно смотреть под отладчиком.
nixties писал(а):AVSplitter c Arcsoft Video Decoder на некоторых MPEG-PS вызывает зависание картинки в начале воспроизведения

Включенный парсинг косячит, у лав сплитера кстати тоже. Возможно придется на MPEG-PS его отключать.
void
Администратор
 
Сообщения: 687
Зарегистрирован: 26 июл 2011, 15:22

Объявление

Re: 1.2.2.3

Сообщение usalex » 08 апр 2012, 11:45

На некоторых DVD показывается неправильное время на таймлайне. Фильм полтора часа, а на таймлайне 12 секунд. При попытке прыгнуть мышкой по таймлайну, фильм начинает проигрываться с самого начала - получается, что навигация по такому фильму невозможна.. Это происходит, например, на фильмах: "Высоцкий. Спасибо, что живой" и "На грани / Man on a Ledge". На этих фильмах и LAV-сплиттер тоже так же косячит, а вот встроенный в MPC-HC сплиттер воспроизводит всё правильно без косяков.
Нельзя ли в AV-сплиттере исправить эту ошибку?
usalex
 
Сообщения: 19
Зарегистрирован: 08 апр 2012, 11:36

Re: 1.2.2.3

Сообщение void » 08 апр 2012, 13:22

usalex писал(а):На некоторых DVD показывается неправильное время на таймлайне.

Известная внутренняя проблема ffmpeg, вроде как последняя из глобальных у ав сплиттера. Фиксить буду после адаптацией кода под LGPL.
void
Администратор
 
Сообщения: 687
Зарегистрирован: 26 июл 2011, 15:22

Re: 1.2.2.3

Сообщение DROOPY » 08 апр 2012, 16:55

Может немного не в тему, но я не знаю где ещё можно задать такой вопрос и получить вразумительный ответ (на русском)
проблема в воспроизведением аудио в FLV закодированного кодеком Speex, такое чувство что его вообще в природе не существует
тот, что с сайта http://xiph.org/dshow/ не работает в этом случае, он для контейнера ogg с типом MEDIATYPE_OggPacketStream
В общем вопрос на 100 рубелей, чем декодировать
majortype: MEDIATYPE_Audio
subtype: {20787073-0000-0010-8000-00AA00389B71}
этот тип выдаёт AV Splitter
spx.png
spx.png (41.06 КБ) Просмотров: 3627
DROOPY
 
Сообщения: 3
Зарегистрирован: 08 апр 2012, 16:19

Re: 1.2.2.3

Сообщение void » 08 апр 2012, 18:27

DROOPY писал(а):проблема в воспроизведением аудио в FLV закодированного кодеком Speex, такое чувство что его вообще в природе не существует

Действительно проблема.
Залейте семпл. На досуге попробую медиатип поменять на MEDIATYPE_OggPacketStream или у декодера вход подправить на MEDIATYPE_Audio. Может и заработает.
-----------------------------------------------------
subtype: {20787073-0000-0010-8000-00AA00389B71} означает spx, похоже что определяется правильно.
void
Администратор
 
Сообщения: 687
Зарегистрирован: 26 июл 2011, 15:22

Re: 1.2.2.3

Сообщение DROOPY » 08 апр 2012, 19:09

void писал(а):
DROOPY писал(а):
Залейте семпл. На досуге попробую медиатип поменять на MEDIATYPE_OggPacketStream или у декодера вход подправить на MEDIATYPE_Audio. Может и заработает.

Семпл сюда не прикрепляется: "Расширение flv запрещено администратором."
http://rghost.ru/37480830

PS: LAV Splitter для Speex выдает этот тип:
majortype: MEDIATYPE_Audio
subtype: {0000A109-0000-0010-8000-00AA00389B71}
этот же тип выдаёт сам AV Splitter для avi или mkv контейнера ;) после этой операции
ffmpeg -i 28399-030_fixed.flv -c copy out.mkv
--
ffmpeg version N-39494-g41a097a Copyright (c) 2000-2012 the FFmpeg developers
****
[libspeex @ 0000000000326480] Missing Speex header, assuming defaults.
Input #0, flv, from '28399-030_fixed.flv':
Duration: 00:00:18.84, start: 0.000000, bitrate: 485 kb/s
Stream #0:0: Video: flv1, yuv420p, 320x240, 1k tbr, 1k tbn, 1k tbc
Stream #0:1: Audio: speex, 16000 Hz, 1 channels, s16
Output #0, matroska, to 'out.mkv':
Metadata:
encoder : Lavf54.3.100
Stream #0:0: Video: flv1 (FLV1 / 0x31564C46), yuv420p, 320x240, q=2-31, 1k tbn, 1k tbc
Stream #0:1: Audio: speex ([9][161][0][0] / 0xA109), 16000 Hz, 1 channels
Stream mapping:
Stream #0:0 -> #0:0 (copy)
Stream #0:1 -> #0:1 (copy)
Press [q] to stop, [?] for help
frame= 231 fps=0.0 q=-1.0 Lsize= 1106kB time=00:00:18.83 bitrate= 481.1kbits/s
video:1050kB audio:48kB global headers:0kB muxing overhead 0.770501%
DROOPY
 
Сообщения: 3
Зарегистрирован: 08 апр 2012, 16:19

Re: 1.2.2.3

Сообщение void » 11 апр 2012, 14:00

void писал(а):На досуге попробую медиатип поменять на MEDIATYPE_OggPacketStream или у декодера вход подправить на MEDIATYPE_Audio. Может и заработает.

Не помогло. Для успешного коннекта требуется особым образом подготовить семплы на вход декодеру, как бы это не проблема, в исходниках видно что требует декодер.
void
Администратор
 
Сообщения: 687
Зарегистрирован: 26 июл 2011, 15:22

Re: 1.2.2.3

Сообщение DROOPY » 11 апр 2012, 17:26

void писал(а):Не помогло. Для успешного коннекта требуется особым образом подготовить семплы на вход декодеру, как бы это не проблема, в исходниках видно что требует декодер.

Печально. Т.е. совместимого DX декодера для Speex просто не существует?
DROOPY
 
Сообщения: 3
Зарегистрирован: 08 апр 2012, 16:19

Re: 1.2.2.3

Сообщение void » 12 апр 2012, 16:08

DROOPY писал(а):Печально. Т.е. совместимого DX декодера для Speex просто не существует?

Видимо так и есть, если конечно в наборе http://xiph.org/dshow/ не найдется ни чего подходящего.
void
Администратор
 
Сообщения: 687
Зарегистрирован: 26 июл 2011, 15:22

Re: 1.2.2.3

Сообщение RBG » 15 апр 2012, 17:33

void

Кстати, не уверен, но походу исчезновение звука после перемотки происходит только на встроенных декодерах PotPlayer. Если не сложно посмотрите еще раз тот сэмпл на который я указвал, только с учетом использования встроенных аудио декодеров PotPlayer. Да и еще, у меня нормализация включена.
RBG
 
Сообщения: 132
Зарегистрирован: 07 сен 2011, 20:05

Пред.След.

Вернуться в Тестовые сборки

Кто сейчас на конференции

Сейчас этот форум просматривают: нет зарегистрированных пользователей и гости: 1

cron